#TITLE:New World Symphony;
#SUBTITLE:;
#ARTIST:.....;
#TITLETRANSLIT:New World Symphony;
#SUBTITLETRANSLIT:;
#ARTISTTRANSLIT:.....;
#CREDIT:Thu Tu , 6-5-2009;
#BANNER:New World Symphony-bn.png;
#BACKGROUND:New World Symphony-bg.png;
#LYRICSPATH:;
#CDTITLE:pm4cd.png;
#MUSIC:New World Symphony.mp3;
#OFFSET:0.660;
#SAMPLESTART:54.020;
#SAMPLELENGTH:20.000;
#SELECTABLE:YES;
#BPMS:0.000=137.000,3.000=68.500,4.000=137.000;
#STOPS:;
#BGCHANGES:;
// cache tags:
#FIRSTBEAT:3.000;
#LASTBEAT:436.000;
#SONGFILENAME:Songs/Lon`/New World Symphony/New World Symphony.sm;
#HASMUSIC:1;
#HASBANNER:0;
#MUSICLENGTH:192.144;
// end cache tags

//---------------dance-single - ----------------
#NOTES:
     dance-single:
     :
     Hard:
     31:
     1.000,1.000,1.000,1.000,1.000,1356.000,449.000,403.000,0.000,441.000:
0000
0000
0000
0200
,
1321
0000
0100
0030
0012
0000
0100
0003
1021
0000
0100
0030
0012
0000
0100
0003
1210
0000
0001
0300
0012
0000
0100
0003
1210
0000
0001
0300
0012
0000
0100
0003
,
1210
0000
0001
0300
1020
0000
0100
0030
1201
0000
0010
0300
0021
0000
0100
0030
1201
0000
0010
0300
0102
0000
0010
0003
1201
0000
0010
0300
0102
0000
0010
0003
,
1021
0100
1000
0100
1031
0010
0100
0010
1021
0100
1000
0100
1031
0010
0100
0010
,
1102
0010
0100
1000
0113
0001
0010
0100
1102
0010
0100
1000
0113
0001
0010
0100
,
1010
0000
0100
0000
0010
0000
0001
0000
2111
0000
0001
0000
0010
0000
0100
3000
1112
0000
0100
0000
0010
0000
0100
0003
2111
0000
0010
0000
0100
0000
0010
3000
,
1112
0010
0100
1000
0110
0010
0100
1000
0110
0010
0100
1000
0110
0010
0100
1000
,
2223
0000
3331
0000
1022
0033
1022
0033
,
2212
0000
0000
0000
0000
0000
0000
0000
3313
0000
0000
0000
2200
0000
0000
3300
2210
0000
0000
0000
0000
0000
0000
0000
3310
0000
0000
0000
0000
0000
0000
0000
,
1222
0000
0000
0000
0000
0000
0000
0000
1333
0000
0000
0000
0000
0000
0000
0000
1022
0000
0000
0000
0033
0000
0000
0000
1022
0000
0000
0033
2200
0000
0000
3300
,
1222
0000
1333
0000
1000
0000
1220
0330
,
2220
0000
3331
0000
1022
0033
1022
0033
,
2212
0000
0000
0000
0000
0000
0000
0000
3313
0000
0000
0000
2200
0000
0000
3300
2210
0000
0000
0000
0000
0000
0000
0000
3310
0000
0000
0000
0000
0000
0000
0000
,
1222
0000
0000
0000
0000
0000
0000
0000
0000
0000
0000
0000
0000
0000
0000
0000
0000
0000
0000
0000
0000
0000
0000
0000
0000
0000
0000
0000
0000
0000
0000
0000
0000
0000
0000
0000
0000
0000
0000
0000
0000
0000
0000
0000
0000
0000
0000
0000
1333
0000
0000
0000
0000
0000
0000
0000
0000
0000
0000
0000
0000
0000
0000
0000
0100
0000
0000
0000
0000
0000
0000
0000
0000
0000
0000
0000
0000
0000
0000
0000
0010
0000
0000
0000
0000
0000
0000
0000
0000
0000
0000
0000
0000
0000
0000
0000
1022
0000
0000
0000
0000
0000
0000
0000
0000
0000
0000
0000
0000
0000
0000
0000
0000
0000
0000
0000
0000
0000
0000
0000
0033
0000
0000
0000
0000
0000
0000
0000
0000
0000
0000
0000
0000
0000
0000
0000
0000
0000
0000
0000
0000
0000
0000
0000
1022
0000
0000
0000
0000
0000
0000
0000
0000
0000
0000
0000
0000
0000
0000
0000
0000
0000
0033
0000
0000
0000
0000
0000
2210
0000
0000
0000
0000
0000
0000
0000
0000
0000
0000
0000
0000
0000
0000
0000
0000
0000
3300
0000
0000
0000
0000
0000
,
2122
0000
0000
3000
0200
0000
0000
0300
2100
0000
0000
3033
0200
0000
0000
0300
0120
0000
0000
0030
0002
0000
0000
0003
2100
0000
0000
3000
0020
0000
0000
0030
,
2221
0000
3331
0000
1022
0033
1022
0033
,
2212
0000
0000
0000
0000
0000
0000
0000
3313
0000
0000
0000
2200
0000
0000
3300
2210
0000
0000
0000
0000
0000
0000
0000
3310
0000
0000
0000
0000
0000
0000
0000
,
1222
0000
0000
0000
0000
0000
0000
0000
1333
0000
0000
0000
0000
0000
0000
0000
1022
0000
0000
0000
0033
0000
0000
0000
1022
0000
0000
0033
2200
0000
0000
3300
,
1222
0000
1333
0000
1002
0003
1220
0330
,
2221
0000
3331
0000
1022
0033
1022
0033
,
2212
0000
0000
0000
0000
0000
0000
0000
3313
0000
0000
0000
2200
0000
0000
3300
2210
0000
0000
0000
0000
0000
0000
0000
3310
0000
0000
0000
0000
0000
0000
0000
,
1222
0000
0000
0000
0000
0000
0000
0000
0000
0000
0000
0000
0000
0000
0000
0000
0000
0000
0000
0000
0000
0000
0000
0000
0000
0000
0000
0000
0000
0000
0000
0000
0000
0000
0000
0000
0000
0000
0000
0000
0000
0000
0000
0000
0000
0000
0000
0000
1333
0000
0000
0000
0000
0000
0000
0000
0000
0000
0000
0000
0000
0000
0000
0000
0100
0000
0000
0000
0000
0000
0000
0000
0000
0000
0000
0000
0000
0000
0000
0000
0010
0000
0000
0000
0000
0000
0000
0000
0000
0000
0000
0000
0000
0000
0000
0000
1022
0000
0000
0000
0000
0000
0000
0000
0000
0000
0000
0000
0000
0000
0000
0000
0000
0000
0000
0000
0000
0000
0000
0000
0033
0000
0000
0000
0000
0000
0000
0000
0000
0000
0000
0000
0000
0000
0000
0000
0000
0000
0000
0000
0000
0000
0000
0000
1022
0000
0000
0000
0000
0000
0000
0000
0000
0000
0000
0000
0000
0000
0000
0000
0000
0000
0033
0000
0000
0000
0000
0000
2210
0000
0000
0000
0000
0000
0000
0000
0000
0000
0000
0000
0000
0000
0000
0000
0000
0000
3300
0000
0000
0000
0000
0000
,
2122
0000
0000
3000
0200
0000
0000
0300
2100
0000
0000
3000
0200
0000
0033
0300
0120
0000
0000
0030
0002
0000
0000
0003
2100
0000
0000
3000
0020
0000
0000
0030
,
1102
0010
0100
0010
1100
0010
0103
0001
1102
0010
1003
0010
1102
0010
0103
1000
,
0211
0000
1000
0000
0010
0000
1000
0000
0011
0000
1300
0000
0210
0000
1000
0300
0211
0000
0010
0000
0001
0000
1000
0000
0011
0300
0100
0000
0010
0000
0001
0000
,
1210
0001
0310
1000
0211
0001
0310
0100
1021
0100
0031
0100
1012
0103
0210
0301
,
1012
0100
0010
0100
1010
0100
0010
0100
1010
0100
0013
0100
2010
0100
3001
0010
,
1102
0010
0100
0010
1100
0010
0103
0001
1102
0010
1003
0010
1102
0010
0103
1000
,
0211
0000
1000
0000
0010
0000
1000
0000
0011
0000
1300
0000
0210
0000
1000
0300
0211
0000
0010
0000
0001
0000
1000
0000
0011
0300
0100
0000
0010
0000
0001
0000
,
1210
0001
0310
1000
0211
0001
0310
0100
1021
0100
0031
0100
1012
0103
0210
0301
,
1012
0100
0010
0100
1010
0100
0010
0100
1010
1100
0113
0011
2110
0011
0110
3011
,
0111
1000
0100
1000
0011
1000
0100
0010
1110
0001
0010
0100
1110
0001
0010
0100
,
0111
1000
0100
0010
1001
0010
0111
1000
0111
1000
0010
0001
0011
0100
1000
0100
,
1101
0010
0100
0010
0101
0010
0100
0001
1011
0100
0010
0001
1110
0001
1110
0010
,
1101
0010
0100
0010
0101
0010
1100
0010
1011
0100
1000
0100
1010
0001
0010
0100
,
1111
0010
0100
1000
0011
1000
0100
0010
1110
0001
0010
0100
1110
0001
0010
0100
,
0111
1000
0100
0010
1001
0010
0111
1000
0111
0100
0010
0001
0011
0100
1000
0100
,
1101
0010
0100
0010
0101
0010
1100
0001
1011
0100
0010
0001
1100
0010
1100
0010
,
0111
1000
0100
0010
0011
1000
0100
1000
0111
1000
0100
1000
0111
1000
0100
1000
,
1110
0001
0010
0100
0010
0001
1110
0001
1110
0001
0010
0100
1010
0001
0010
0100
,
1111
0010
0100
0010
0110
0100
1000
0100
0111
0100
0010
0001
1110
1000
0111
1000
,
0111
0001
0010
0100
1010
0100
0010
0001
1010
0100
0010
0001
0101
0010
0100
1000
,
1111
0010
0100
0010
0110
0100
1000
0100
0111
0100
0010
0001
1110
1000
0111
1000
,
0111
0001
0010
0100
1010
0100
0010
0001
1010
0100
0010
0001
0101
0010
0100
1000
,
0111
0001
0010
0100
1010
0100
1000
0100
0111
0001
0010
0100
1010
0100
1000
0100
,
0111
0001
0010
0100
1010
0100
1000
0100
0111
0001
0010
0100
1010
0100
1000
0100
,
1011
0010
0100
1000
0011
0010
0100
1000
0011
0010
0100
1000
0011
0010
0100
1000
,
1100
0100
0010
0001
1100
0100
0010
0001
1100
0110
0011
0001
1100
0110
0011
0001
,
2102
0010
0100
0010
3010
0100
1000
0100
1010
0100
0210
1000
0010
1000
0310
0100
,
2010
0000
0100
0000
0010
0000
0100
0000
3010
0000
0100
0000
1010
0000
0100
0000
0210
0000
1000
0300
2010
0000
0100
0000
0010
0000
0100
0000
3010
0000
0100
0003
,
0221
1000
0301
1000
0132
0010
0100
1000
0213
1000
0010
0001
1320
0100
1000
0100
,
2031
0010
0100
0010
3201
0010
1000
0010
0321
0100
1000
0100
1032
0100
0010
0100
,
2113
0001
3010
0100
2011
3100
2010
3001
2011
0100
3010
0001
2110
0001
3010
0100
,
1102
0010
0103
1000
0112
0013
0102
1003
0112
1000
0103
0010
1102
0100
0013
0100
,
0212
1000
0310
0100
2010
0100
3010
0100
2010
0100
3010
0100
1200
0010
1300
0100
,
0120
1000
0130
0010
1200
0010
0310
0100
2010
0100
3010
0100
1200
0010
0310
0100
,
1020
0000
0100
0000
1030
0000
0100
0000
0210
0000
1000
0000
0310
0000
0100
0000
2100
0000
0010
0000
3100
0000
0010
0000
1200
0000
0010
0000
1300
0000
0100
0003
,
0011
0100
0011
0100
0011
1000
0011
1000
0011
0100
0011
0100
0011
1000
0100
0010
,
1112
0010
0100
1000
0123
1000
0100
0100
1001
0100
1000
0100
1001
0100
1000
0100
,
1131
0010
1100
0010
1100
0001
1100
0001
1100
0010
1100
0010
1100
0010
0100
0001
,
2110
0001
0010
0100
0011
0100
0010
0100
0011
0100
0010
0001
0110
0001
0100
0010
,
3101
0001
0010
0001
0110
1000
0100
0010
0011
0010
1000
0100
1001
0100
1000
0010
,
1120
0001
0100
0001
1100
0001
0100
1000
0101
1000
0100
0001
1100
0001
0100
1000
,
1132
0010
1100
0010
1100
0010
1100
0010
1100
0010
1100
0010
1100
0010
1100
0010
,
1100
0010
0100
1000
0110
1000
0100
0010
1100
0010
0100
0010
1100
0100
0010
0100
,
2013
0100
0010
0001
3210
0001
0010
1000
0312
0100
0010
1000
0123
0001
1000
0100
,
1032
0100
0010
0100
2013
0010
0100
0010
3012
0100
0010
0100
0213
1000
0010
0001
,
1310
0010
0100
0001
1010
0100
0010
0100
1001
0010
0100
0010
0101
0010
1000
1000
,
0101
0010
0100
0010
1001
0010
0100
0010
0101
0010
0100
0010
1001
0010
0100
0100
,
1010
0100
0010
0100
1001
0010
0100
0010
1001
0100
0010
0100
1001
0010
0001
0001
,
1000
0010
0100
0001
0010
0100
0010
0100
1000
0010
0100
0010
0001
0100
0010
0010
,
0001
0010
0100
0010
1000
0010
0100
0010
0001
0010
0100
0010
1000
0010
1000
1000
,
0101
0010
0100
0010
1001
0010
0100
0010
0101
0010
0100
0010
1001
0010
0100
0100
,
1021
0000
0100
0030
0012
0000
0100
0003
1021
0000
0100
0030
0012
0000
0100
0003
1210
0000
0001
0300
0012
0000
0100
0003
1210
0000
0001
0300
0012
0000
0100
0003
,
1210
0000
0001
0300
1020
0000
0100
0030
1201
0000
0010
0300
0021
0000
0100
0030
1201
0000
0010
0300
0102
0000
0010
0003
1201
0000
0010
0300
0102
0000
0010
0003
,
1021
0100
1000
0100
1031
0010
0100
0010
1021
0100
1000
0100
1031
0010
0100
0010
,
1102
0010
0100
1000
0113
0001
0010
0100
1102
0010
0100
1000
0113
0001
0010
0100
,
1010
0000
0100
0000
0010
0000
0001
0000
2111
0000
0001
0000
0010
0000
0100
3000
1112
0000
0100
0000
0010
0000
0100
0003
2111
0000
0010
0000
0100
0000
0010
3000
,
1112
0010
0100
1000
0110
0010
0100
1000
0110
0010
0100
1000
0110
0010
0100
1000
,
2223
0000
3331
0000
1022
0033
1022
0033
,
2212
0000
0000
0000
0000
0000
0000
0000
3313
0000
0000
0000
2200
0000
0000
3300
2210
0000
0000
0000
0000
0000
0000
0000
3310
0000
0000
0000
0000
0000
0000
0000
,
1222
0000
0000
0000
0000
0000
0000
0000
1333
0000
0000
0000
0000
0000
0000
0000
1022
0000
0000
0000
0033
0000
0000
0000
1022
0000
0000
0033
2200
0000
0000
3300
,
1222
0000
0000
0000
0000
0000
0000
0000
1333
0000
0000
0000
0000
0000
0000
0000
1000
0000
0000
0000
0000
0000
0000
0000
1220
0000
0000
0330
0000
0000
0010
0000
,
2221
0000
3331
0000
1022
0033
1022
0033
,
2212
0000
0000
0000
0000
0000
0000
0000
3313
0000
0000
0000
2200
0000
0000
3300
2210
0000
0000
0000
0000
0000
0000
0000
3310
0000
0000
0000
0000
0000
0000
0000
,
1222
0000
0000
0000
0000
0000
0000
0000
0000
0000
0000
0000
0000
0000
0000
0000
0000
0000
0000
0000
0000
0000
0000
0000
0000
0000
0000
0000
0000
0000
0000
0000
0000
0000
0000
0000
0000
0000
0000
0000
0000
0000
0000
0000
0000
0000
0000
0000
1333
0000
0000
0000
0000
0000
0000
0000
0000
0000
0000
0000
0000
0000
0000
0000
0100
0000
0000
0000
0000
0000
0000
0000
0000
0000
0000
0000
0000
0000
0000
0000
0010
0000
0000
0000
0000
0000
0000
0000
0000
0000
0000
0000
0000
0000
0000
0000
1022
0000
0000
0000
0000
0000
0000
0000
0000
0000
0000
0000
0000
0000
0000
0000
0000
0000
0000
0000
0000
0000
0000
0000
0033
0000
0000
0000
0000
0000
0000
0000
0000
0000
0000
0000
0000
0000
0000
0000
0000
0000
0000
0000
0000
0000
0000
0000
1022
0000
0000
0000
0000
0000
0000
0000
0000
0000
0000
0000
0000
0000
0000
0000
0000
0000
0033
0000
0000
0000
0000
0000
2210
0000
0000
0000
0000
0000
0000
0000
0000
0000
0000
0000
0000
0000
0000
0000
0000
0000
3300
0000
0000
0000
0000
0000
,
2122
0000
0000
3000
0200
0000
0000
0300
2100
0000
0100
3033
1200
0000
0010
0300
0120
0000
0100
0030
1002
0000
0100
0003
2010
0000
0100
3000
0021
0000
0100
0030
,
2221
0000
3331
0000
1022
0033
1022
0033
,
2212
0000
0000
0000
0000
0000
0000
0000
3313
0000
0000
0000
2200
0000
0000
3300
2210
0000
0000
0000
0000
0000
0000
0000
3310
0000
0000
0000
0000
0000
0000
0000
,
1222
0000
0000
0000
0000
0000
0000
0000
1333
0000
0000
0000
0000
0000
0000
0000
1022
0000
0000
0000
0033
0000
0000
0000
1022
0000
0000
0033
2200
0000
0000
3300
,
1222
0000
0000
0000
0000
0000
0000
0000
1333
0000
0000
0000
0000
0000
0000
0000
1002
0000
0000
0003
0000
0000
0000
0000
0221
0000
1000
0330
0100
0000
0010
0000
,
2221
0000
3331
0000
1022
0033
1022
0033
,
2212
0000
0000
0000
0000
0000
0000
0000
3313
0000
0000
0000
2200
0000
0000
3300
2210
0000
0000
0000
0000
0000
0000
0000
3310
0000
0000
0000
0000
0000
0000
0000
,
1222
0000
0000
0000
0000
0000
0000
0000
0000
0000
0000
0000
0000
0000
0000
0000
0000
0000
0000
0000
0000
0000
0000
0000
0000
0000
0000
0000
0000
0000
0000
0000
0000
0000
0000
0000
0000
0000
0000
0000
0000
0000
0000
0000
0000
0000
0000
0000
1333
0000
0000
0000
0000
0000
0000
0000
0000
0000
0000
0000
0000
0000
0000
0000
0100
0000
0000
0000
0000
0000
0000
0000
0000
0000
0000
0000
0000
0000
0000
0000
0010
0000
0000
0000
0000
0000
0000
0000
0000
0000
0000
0000
0000
0000
0000
0000
1022
0000
0000
0000
0000
0000
0000
0000
0000
0000
0000
0000
0000
0000
0000
0000
0000
0000
0000
0000
0000
0000
0000
0000
0033
0000
0000
0000
0000
0000
0000
0000
0000
0000
0000
0000
0000
0000
0000
0000
0000
0000
0000
0000
0000
0000
0000
0000
1022
0000
0000
0000
0000
0000
0000
0000
0000
0000
0000
0000
0000
0000
0000
0000
0000
0000
0033
0000
0000
0000
0000
0000
2200
0000
0000
0000
0000
0000
0000
0000
0000
0000
0000
0000
0000
0000
0000
0000
0000
0000
3300
0000
0000
0000
0000
0000
,
1022
0100
1000
0100
1000
0100
1003
0100
1002
0100
1003
0100
1002
0100
1003
0100
,
0201
0000
1000
0000
0001
0000
1000
0000
0301
0000
1000
0000
0201
0000
1000
0300
0201
0000
1000
0000
0001
0000
1000
0000
0301
0000
1000
0000
0001
0000
1000
0030
,
0122
1000
0100
1000
0100
1033
0100
0010
0122
1000
0133
0010
0122
1000
2233
0010
,
3322
0100
1000
0100
1000
0133
0010
0001
0110
1000
0100
0010
0001
0010
0100
1000
,
0122
1000
0100
1000
0100
1033
0100
0010
0122
1000
0133
0010
0122
1000
2233
0010
,
3322
0100
1000
0100
1000
0133
1000
0100
0011
0010
0100
1000
0100
0010
0001
0010
,
0122
1000
0133
0010
0101
0010
1100
0110
1022
0100
1033
0100
0011
0010
1100
0110
,
1022
0100
1033
0100
0010
0001
1100
0110
1022
0100
1033
0100
0010
0001
1100
0110
,
1122
0133
0010
0001
1100
0100
0010
0001
1100
0100
0010
0001
1100
0100
0010
0001
,
0011
0010
0100
1000
0011
0010
0100
1000
0011
0010
0100
1000
0011
0010
0100
1000
,
0111
0001
0010
0100
1100
0001
0010
0100
0111
0001
0010
0100
1100
0001
0010
0100
,
0111
0001
0010
0100
1100
0001
0010
0100
0111
1100
0110
0011
0110
1100
0110
0011
,
2222
0000
0000
0000
,
0000
0000
0000
0000
,
0000
0000
0000
0000
,
3333
0000
0000
0000
;
